Durga Sohay (2017) [Bengali] 1CD - HD Rip AAC - 700MB [Freeal...

  • Category Movies
  • Type HD
  • Language Bengali/Bangla
  • Total size 703.4 MB
  • Uploaded By R3con
  • Downloads 93
  • Last checked 22 hours ago
  • Date uploaded 5 days ago
  • Seeders 2
  • Leechers 0

Infohash : 7F323A858C335AC3F71196C798FD1E67D58F60E5




Format : MPEG-4 Freeallmovie.com
Format profile : Base Media
Codec ID : isom (isom/avc1/iso6)
File size : 703 MiB
Duration : 1 h 35 min
Overall bit rate mode : Variable
Overall bit rate : 1 025 kb/s

Video
ID : 1 Freeallmovie.com
Format : AVC
Format/Info : Advanced Video Codec
Format profile : [email protected]
Format settings, CABAC : Yes
Format settings, RefFrames : 4 frames
Codec ID : avc1
Codec ID/Info : Advanced Video Coding
Duration : 1 h 35 min
Bit rate mode : Variable
Bit rate : 957 kb/s
Maximum bit rate : 40.0 Mb/s
Width : 640 pixels
Height : 272 pixels
Display aspect ratio : 2.35:1
Frame rate mode : Constant
Frame rate : 25.000 FPS
Color space : YUV
Chroma subsampling : 4:2:0
Bit depth : 8 bits
Scan type : Progressive
Bits/(Pixel*Frame) : 0.220
Stream size : 656 MiB (93%)
Writing library : x264 core

Audio
ID : 2 Freeallmovie.com
Format : AAC
Format/Info : Advanced Audio Codec
Format profile : LC
Codec ID : 40
Duration : 1 h 35 min
Bit rate mode : Variable
Bit rate : 64.0 kb/s
Maximum bit rate : 72.9 kb/s
Channel(s) : 2 channels
Channel positions : Front: L R
Sampling rate : 48.0 kHz
Frame rate : 46.875 FPS (1024 SPF)
Compression mode : Lossy
Stream size : 43.9 MiB (6%)



Files:

  • Durga Sohay [Freeallmovie.com] (2017) [Bengali] 1CD - HD Rip AAC - 700MB.mp4 (703.4 MB)

There are currently no comments. Feel free to leave one :)

Code:

  • udp://tracker.coppersurfer.tk:6969/announce
  • udp://tracker.pirateparty.gr:6969/announce
  • udp://shadowshq.yi.org:6969/announce
  • udp://eddie4.nl:6969/announce
  • udp://tracker.leechers-paradise.org:6969/announce
  • udp://tracker.opentrackr.org:1337/announce
  • udp://62.138.0.158:6969/announce
  • udp://tracker.internetwarriors.net:1337/announce
  • http://tracker.devil-torrents.pl/announce
  • udp://9.rarbg.to:2710/announce
  • udp://ipv4.tracker.harry.lu:80/announce
  • udp://tracker.grepler.com:6969/announce
  • udp://public.popcorn-tracker.org:6969/announce
  • udp://tracker.opentrackr.org:1337/announce
  • udp://tracker.zer0day.to:1337/announce