Espy minaccia extrasensoriale - Esupai (1974).H264.Italian.Jpn.Ac...

  • Category Movies
  • Type h.264/x264
  • Language Italian
  • Total size 1.1 GB
  • Uploaded By robbyrs
  • Downloads 8
  • Last checked 2 days ago
  • Date uploaded 1 week ago
  • Seeders 11
  • Leechers 5

Infohash : DBE8860D14F5DFCF5785E05E7ECC7215FD41887B

Espy minaccia extrasensoriale - Esupai (1974).H264.Italian.Jpn.Ac3.sub.ita.iCV-MIRCrew




NO FOUND ONLY ORIGINAL RELEASE





My release is always in double track audio italian and Original audio
for select it use VLC or dvd player home
not use wmp

Espy minaccia extrasensoriale - Esupai (1974)








Titolo Origiale: Esupai
Anno: 1974
Genere: Fantascienza
Regia: Jun Fukuda.



Hiroshi Fujioka, Kaoru Yumi, Masao Kusakari, Yûzô Kayama, Tomisaburô Wakayama, Katsumasa Uchida .



Per combattere una fantomatica organizzazione criminale responsabile di una serie di gravissimi attentati ai danni di autorevoli personalità delle Nazioni Unite, gli scienziati giapponesi convincono Miki Tosh, un giovane pilota automobilistico dotato di superiori poteri mentali, ad improvvisarsi agente segreto...............



A bad ESP syndicate is planning to kill world leaders through mental telepathy. The good guys are a top secret group called ESPY and they're in charge of stopping the killer psychics.










[spoiler]
General
Unique ID : 160698708258421847407056612188007563556 (0x78E572076EF1ABBE7C61690F74820124)
Complete name : Espy minaccia extrasensoriale - Esupai (1974).H264.ita.jpn.sub.ita.iCV-MIRCrew.mkv
Format : Matroska
Format version : Version 2
File size : 1.07 GiB
Duration : 1h 30mn
Overall bit rate : 1 695 Kbps
Encoded date : UTC 2017-09-13T17:18:13Z
Writing application : HandBrake 0.10.5 2016021100
Writing library : Lavf55.12.0

Video
ID : 1
Format : AVC
Format/Info : Advanced Video Codec
Format profile : [email protected]
Format settings, CABAC : Yes
Format settings, ReFrames : 4 frames
Codec ID : V_MPEG4/ISO/AVC
Duration : 1h 30mn
Bit rate : 1 290 Kbps
Width : 688 pixels
Height : 290 pixels
Display aspect ratio : 2.40:1
Frame rate mode : Variable
Frame rate : 25.000 fps
Color space : YUV
Chroma subsampling : 4:2:0
Bit depth : 8 bits
Scan type : Progressive
Bits/(Pixel*Frame) : 0.259
Stream size : 828 MiB (75%)
Writing library : x264 core 142 r2479 dd79a61
Encoding settings : cabac=1 / ref=1 / deblock=1:-1:-1 / analyse=0x1:0x111 / me=hex / subme=2 / psy=1 / psy_rd=1.00:0.15 / mixed_ref=0 / me_range=16 / chroma_me=1 / trellis=0 / 8x8dct=0 / cqm=0 / deadzone=21,11 / fast_pskip=1 / chroma_qp_offset=0 / threads=12 / lookahead_threads=2 / sliced_threads=0 / nr=0 / decimate=1 / interlaced=0 / bluray_compat=0 / constrained_intra=0 / bframes=3 / b_pyramid=2 / b_adapt=1 / b_bias=0 / direct=1 / weightb=1 / open_gop=0 / weightp=1 / keyint=250 / keyint_min=25 / scenecut=40 / intra_refresh=0 / rc_lookahead=10 / rc=abr / mbtree=1 / bitrate=1290 / ratetol=1.0 / qcomp=0.60 / qpmin=0 / qpmax=69 / qpstep=4 / vbv_maxrate=20000 / vbv_bufsize=25000 / nal_hrd=none / filler=0 / ip_ratio=1.40 / aq=1:1.00
Default : Yes
Forced : No
Color primaries : BT.470-6 System B, BT.470-6 System G, BT.601-6 625, BT.1358 625, BT.1700 625 PAL, BT.1700 625 SECAM
Transfer characteristics : BT.709-5, BT.1361
Matrix coefficients : BT.601-6 525, BT.1358 525, BT.1700 NTSC, SMPTE 170M

Audio #1
ID : 2
Format : AC-3
Format/Info : Audio Coding 3
Mode extension : CM (complete main)
Codec ID : A_AC3
Duration : 1h 30mn
Bit rate mode : Constant
Bit rate : 192 Kbps
Channel(s) : 2 channels
Channel positions : Front: L R
Sampling rate : 48.0 KHz
Bit depth : 16 bits
Compression mode : Lossy
Delay relative to video : 1mn 5s
Stream size : 124 MiB (11%)
Title : Stereo
Language : Italian
Default : Yes
Forced : No

Audio #2
ID : 3
Format : AC-3
Format/Info : Audio Coding 3
Mode extension : CM (complete main)
Codec ID : A_AC3
Duration : 1h 30mn
Bit rate mode : Constant
Bit rate : 192 Kbps
Channel(s) : 2 channels
Channel positions : Front: L R
Sampling rate : 48.0 KHz
Bit depth : 16 bits
Compression mode : Lossy
Delay relative to video : 1mn 5s
Stream size : 124 MiB (11%)
Title : Stereo
Language : Japanese
Default : No
Forced : No

Text #1
ID : 4
Format : VobSub
Codec ID : S_VOBSUB
Codec ID/Info : The same subtitle format used on DVDs
Language : Italian
Default : No
Forced : No

Text #2
ID : 5
Format : VobSub
Codec ID : S_VOBSUB
Codec ID/Info : The same subtitle format used on DVDs
Language : Italian
Default : No
Forced : No

Menu
00:00:00.000 : :Chapter 1
00:07:34.480 : :Chapter 2
00:15:07.280 : :Chapter 3
00:22:40.480 : :Chapter 4
00:30:13.680 : :Chapter 5
00:37:46.880 : :Chapter 6
00:45:20.080 : :Chapter 7
00:52:53.280 : :Chapter 8
01:00:26.480 : :Chapter 9
01:07:59.680 : :Chapter 10
01:15:32.880 : :Chapter 11
01:23:06.080 : :Chapter 12


[/spoiler]



Files:

Espy minaccia extrasensoriale - Esupai (1974).H264.ita.jpn.sub.ita.iCV-MIRCrew
  • Espy minaccia extrasensoriale - Esupai (1974).H264.ita.jpn.sub.ita.iCV-MIRCrew.mkv (1.1 GB)
  • Espy minaccia extrasensoriale - Esupai (1974).H264.ita.jpn.sub.ita.iCV-MIRCrew_track4_ita.idx (0.9 KB)
  • Espy minaccia extrasensoriale - Esupai (1974).H264.ita.jpn.sub.ita.iCV-MIRCrew_track4_ita.sub (52.0 KB)
  • Espy minaccia extrasensoriale - Esupai (1974).H264.ita.jpn.sub.ita.iCV-MIRCrew_track5_ita.idx (28.3 KB)
  • Espy minaccia extrasensoriale - Esupai (1974).H264.ita.jpn.sub.ita.iCV-MIRCrew_track5_ita.sub (2.3 MB)
  • www.icv-crew.org.txt (0.1 KB)

There are currently no comments. Feel free to leave one :)

Code:

  • udp://tracker.coppersurfer.tk:6969/announce
  • udp://tracker.opentrackr.org:1337/announce
  • udp://tracker.leechers-paradise.org:6969/announce
  • udp://9.rarbg.com:2710/announce
  • udp://9.rarbg.to:2710/announce
  • udp://9.rarbg.me:2710/announce
  • udp://glotorrents.pw:6969/announce
  • udp://tracker.openbittorrent.com:80/announce
  • udp://tracker.pubt.net:2710/announce
  • udp://tracker.ilibr.org:6969/announce
  • udp://tracker.ilibr.org:80/announce
  • udp://zer0day.to:1337/announce
  • udp://tracker.zer0day.to:1337/announce
  • udp://p4p.arenabg.com:1337/announce
  • udp://p4p.arenabg.ch:1337/announce
  • udp://explodie.org:6969/announce
  • udp://eddie4.nl:6969/announce