Transformers The Last Knight.2017.BRRip.XviD.AC3-EVO

  • Category Movies
  • Type Divx/Xvid
  • Language English
  • Total size 1.6 GB
  • Uploaded By showstopper
  • Downloads 24
  • Last checked 2 days ago
  • Date uploaded 1 week ago
  • Seeders 24
  • Leechers 11

Infohash : 304EDC45499A5E425E6984AEE5E6238C67497B91

Transformers The Last Knight.2017.BRRip.XviD.AC3-EVO

ImDb: http://www.imdb.com/title/tt3371366



Complete name : Transformers The Last Knight.2017.BRRip.XviD.AC3-EVO.avi
Format : AVI
Format/Info : Audio Video Interleave
Format profile : OpenDML
Format settings : rec
File size : 1.64 GiB
Duration : 2 h 34 min
Overall bit rate : 1 517 kb/s
Writing application : AVI-Mux GUI 1.17.8.3, Feb 16 201019:42:50

Video
ID : 0
Format : MPEG-4 Visual
Format profile : Advanced [email protected]
Format settings, BVOP : 2
Format settings, QPel : No
Format settings, GMC : No warppoints
Format settings, Matrix : Default (MPEG)
Codec ID : XVID
Codec ID/Hint : XviD
Duration : 2 h 34 min
Bit rate : 1 128 kb/s
Width : 720 pixels
Height : 384 pixels
Display aspect ratio : 1.85:1
Frame rate : 23.976 (24000/1001) FPS
Color space : YUV
Chroma subsampling : 4:2:0
Bit depth : 8 bits
Scan type : Progressive
Compression mode : Lossy
Bits/(Pixel*Frame) : 0.170
Stream size : 1.22 GiB (74%)
Writing library : XviD 1.2.1 (UTC 2008-12-04)

Audio
ID : 1
Format : AC-3
Format/Info : Audio Coding 3
Format settings, Endianness : Big
Codec ID : 2000
Duration : 2 h 34 min
Bit rate mode : Constant
Bit rate : 384 kb/s
Channel(s) : 6 channels
Channel positions : Front: L C R, Side: L R, LFE
Sampling rate : 48.0 kHz
Frame rate : 31.250 FPS (1536 spf)
Bit depth : 16 bits
Compression mode : Lossy
Stream size : 425 MiB (25%)
Alignment : Aligned on interleaves
Interleave, duration : 64 ms (1.53 video frames)
Interleave, preload duration : 192 ms
Title : ac3
Service kind : Complete Main






Click To View Screenshot

Click To View Screenshot

Click To View Screenshot

Files:

Transformers The Last Knight.2017.BRRip.XviD.AC3-EVO Sample
  • sample.avi (4.0 MB)
  • Transformers The Last Knight.2017.BRRip.XviD.AC3-EVO.avi (1.6 GB)
  • Transformers The Last Knight.2017.BRRip.XviD.AC3-EVO.nfo (0.0 KB)

There are currently no comments. Feel free to leave one :)

Code:

  • udp://tracker.coppersurfer.tk:6969/announce
  • udp://tracker.pirateparty.gr:6969/announce
  • udp://shadowshq.yi.org:6969/announce
  • udp://eddie4.nl:6969/announce
  • udp://tracker.leechers-paradise.org:6969/announce
  • udp://tracker.opentrackr.org:1337/announce
  • udp://p4p.arenabg.ch:1337/announce
  • udp://p4p.arenabg.com:1337/announce
  • udp://9.rarbg.me:2710/announce
  • udp://9.rarbg.to:2710/announce
  • udp://ipv4.tracker.harry.lu:80/announce
  • udp://tracker.grepler.com:6969/announce
  • udp://public.popcorn-tracker.org:6969/announce
  • udp://tracker.opentrackr.org:1337/announce
  • udp://tracker.zer0day.to:1337/announce