The People Under the Stairs 10bit hevc-d3g.

  • Category Movies
  • Type HD
  • Language English
  • Total size 2.1 GB
  • Uploaded By showstopper
  • Downloads 9
  • Last checked 2 days ago
  • Date uploaded 1 week ago
  • Seeders 6
  • Leechers 2

Infohash : 82C4077F2D1DA059E73E490F3B239B2452B685F6

The People Under the Stairs 10bit hevc-d3g.

ImDb: http://www.imdb.com/title/tt1396484



Complete name : The People Under the Stairs 1991 CollEd BluRay 10bit 1080p DD5.1 H265-d3g.mkv
Format : Matroska
Format version : Version 4 / Version 2
File size : 2.08 GiB
Duration : 1 h 41 min
Overall bit rate : 2 919 kb/s
Movie name : The People Under the Stairs 1991 CollEd BluRay 10bit 1080p DD5.1 H265-d3g
Encoded date : UTC 2017-09-13 00:53:28
Writing application : DVDFab 10.0.5.7
Writing library : libebml v1.3.4 + libmatroska v1.4.5

Video
ID : 1
Format : HEVC
Format/Info : High Efficiency Video Coding
Format profile : Main [email protected]@Main
Codec ID : V_MPEGH/ISO/HEVC
Duration : 1 h 41 min
Bit rate : 2 466 kb/s
Width : 1 920 pixels
Height : 1 036 pixels
Display aspect ratio : 1.85:1
Frame rate mode : Constant
Frame rate : 23.976 (24000/1001) FPS
Color space : YUV
Chroma subsampling : 4:2:0
Bit depth : 10 bits
Bits/(Pixel*Frame) : 0.052
Stream size : 1.75 GiB (84%)
Default : Yes
Forced : No
Color range : Limited
Color primaries : BT.709
Transfer characteristics : BT.709
Matrix coefficients : BT.709

Audio
ID : 2
Format : AC-3
Format/Info : Audio Coding 3
Format settings, Endianness : Big
Codec ID : A_AC3
Duration : 1 h 41 min
Bit rate mode : Constant
Bit rate : 448 kb/s
Channel(s) : 6 channels
Channel positions : Front: L C R, Side: L R, LFE
Sampling rate : 48.0 kHz
Frame rate : 31.250 FPS (1536 spf)
Bit depth : 16 bits
Compression mode : Lossy
Stream size : 327 MiB (15%)
Language : English
Service kind : Complete Main
Default : Yes
Forced : No

Text
ID : 3
Format : VobSub
Codec ID : S_VOBSUB
Codec ID/Info : Picture based subtitle format used on DVDs
Duration : 1 h 37 min
Bit rate : 5 704 b/s
Count of elements : 1090
Stream size : 3.96 MiB (0%)
Language : English
Default : Yes
Forced : No

Menu
00:00:00.000 : en:00:00:00.000
00:05:16.983 : en:00:05:16.983
00:11:31.232 : en:00:11:31.232
00:16:12.346 : en:00:16:12.346
00:22:11.121 : en:00:22:11.121
00:26:25.250 : en:00:26:25.250
00:34:19.015 : en:00:34:19.015
00:41:25.858 : en:00:41:25.858
00:47:24.257 : en:00:47:24.258
00:52:10.336 : en:00:52:10.336
00:57:08.383 : en:00:57:08.383
01:00:07.562 : en:01:00:07.562
01:06:10.550 : en:01:06:10.550
01:11:16.772 : en:01:11:16.772
01:16:05.811 : en:01:16:05.811
01:23:38.222 : en:01:23:38.222
01:29:38.999 : en:01:29:38.999
01:38:22.688 : en:01:38:22.688






Click To View Screenshot

Click To View Screenshot

Click To View Screenshot

Files:

The People Under the Stairs 10bit hevc-d3g.
  • The People Under the Stairs 1991 CollEd BluRay 10bit 1080p DD5.1 H265-d3g.mkv (2.1 GB)

There are currently no comments. Feel free to leave one :)

Code:

  • udp://tracker.coppersurfer.tk:6969/announce
  • udp://tracker.pirateparty.gr:6969/announce
  • udp://shadowshq.yi.org:6969/announce
  • udp://eddie4.nl:6969/announce
  • udp://tracker.leechers-paradise.org:6969/announce
  • udp://tracker.opentrackr.org:1337/announce
  • udp://p4p.arenabg.ch:1337/announce
  • udp://p4p.arenabg.com:1337/announce
  • udp://9.rarbg.me:2710/announce
  • udp://9.rarbg.to:2710/announce
  • udp://ipv4.tracker.harry.lu:80/announce
  • udp://tracker.grepler.com:6969/announce
  • udp://public.popcorn-tracker.org:6969/announce
  • udp://tracker.opentrackr.org:1337/announce
  • udp://tracker.zer0day.to:1337/announce