Tiger House (2015).H264.Italian.English.Ac3.5.1.sub.ita.iCV-MIRCr...

  • Category Movies
  • Type h.264/x264
  • Language English
  • Total size 1.2 GB
  • Uploaded By robbyrs
  • Downloads 230
  • Last checked 23 hours ago
  • Date uploaded 5 days ago
  • Seeders 80
  • Leechers 11

Infohash : 8961CE4820B33A66873108BD8E5F07E460A96AA7

Tiger House (2015).H264.Italian.English.Ac3.5.1.sub.ita.iCV-MIRCrew




NO FOUND ONLY ORIGINAL RELEASE





My release is always in double track audio italian and Original audio
for select it use VLC or dvd player home
not use wmp

Tiger House (2015)







Tiger House
Gran Bretagna, Sudafrica, 2015
Genere: Thriller
durata 80'



Kaya Scodelario
Dougray Scott
Ed Skrein



Una fatidica notte, la problematica adolescente Kelly si intrufola in casa del fidanzato Mark per dirgli di essere incinta. Kelly, però, non è l'unico visitatore sgradito: una banda armata irrompe in casa per via del lavoro di Doug, il padre di Mark, che gestisce un deposito di contanti..................



Kelly sneaks into her boyfriend's house but tonight, she's not the only unwelcome visitor. As the situation spirals out of control, the suburban house becomes a terrifying arena for violence.










[spoiler]
General
Unique ID : 102968488674327623291206888314148404611 (0x4D770272F539D0E5515D1F30DE0ABD83)
Complete name : Tiger House (2015).H264.ita.eng.sub.ita.iCV-MIRCrew.mkv
Format : Matroska
Format version : Version 2
File size : 1.21 GiB
Duration : 1h 19mn
Overall bit rate : 2 190 Kbps
Movie name : icv-crew
Encoded date : UTC 2017-09-13 11:40:06
Writing application : Lavf54.63.100
Writing library : Lavf54.63.100
COPYRIGHT : robbyrs
DATE : 2017

Video
ID : 1
Format : AVC
Format/Info : Advanced Video Codec
Format profile : [email protected]
Format settings, CABAC : Yes
Format settings, ReFrames : 2 frames
Codec ID : V_MPEG4/ISO/AVC
Duration : 1h 19mn
Bit rate : 1 300 Kbps
Width : 720 pixels
Height : 404 pixels
Display aspect ratio : 16:9
Frame rate mode : Variable
Frame rate : 25.000 fps
Color space : YUV
Chroma subsampling : 4:2:0
Bit depth : 8 bits
Scan type : Progressive
Bits/(Pixel*Frame) : 0.179
Stream size : 710 MiB (57%)
Title : x264 1080p
Writing library : x264 core 130 r2273
Encoding settings : cabac=1 / ref=2 / deblock=1:0:0 / analyse=0x1:0x131 / me=hex / subme=7 / psy=1 / psy_rd=1.00:0.00 / mixed_ref=0 / me_range=16 / chroma_me=1 / trellis=1 / 8x8dct=0 / cqm=0 / deadzone=21,11 / fast_pskip=1 / chroma_qp_offset=-2 / threads=12 / lookahead_threads=2 / sliced_threads=0 / nr=0 / decimate=1 / interlaced=0 / bluray_compat=0 / constrained_intra=0 / bframes=3 / b_pyramid=0 / b_adapt=1 / b_bias=0 / direct=3 / weightb=1 / open_gop=0 / weightp=2 / keyint=250 / keyint_min=25 / scenecut=40 / intra_refresh=0 / rc_lookahead=40 / rc=abr / mbtree=1 / bitrate=1300 / ratetol=1.0 / qcomp=0.60 / qpmin=10 / qpmax=69 / qpstep=4 / vbv_maxrate=24000 / vbv_bufsize=24000 / nal_hrd=none / ip_ratio=1.40 / aq=1:1.00
Language : Italian
Default : Yes
Forced : No
DURATION : 01:19:21.360000000
NUMBER_OF_FRAMES : 119034
NUMBER_OF_BYTES : 3217790076
_STATISTICS_WRITING_APP : mkvmerge v15.0.0 ('Duel with the Devil') 32-bit
_STATISTICS_WRITING_DATE_UTC : 2017-09-11 14:06:21
_STATISTICS_TAGS : BPS DURATION NUMBER_OF_FRAMES NUMBER_OF_BYTES

Audio #1
ID : 2
Format : AC-3
Format/Info : Audio Coding 3
Mode extension : CM (complete main)
Codec ID : A_AC3
Duration : 1h 19mn
Bit rate mode : Constant
Bit rate : 448 Kbps
Channel(s) : 6 channels
Channel positions : Front: L C R, Side: L R, LFE
Sampling rate : 48.0 KHz
Bit depth : 16 bits
Compression mode : Lossy
Delay relative to video : 1mn 5s
Stream size : 254 MiB (20%)
Title : Italian 5.1
Language : Italian
Default : Yes
Forced : No
DURATION : 01:19:21.184000000
NUMBER_OF_FRAMES : 446361
NUMBER_OF_BYTES : 898078332
_STATISTICS_WRITING_APP : mkvmerge v15.0.0 ('Duel with the Devil') 32-bit
_STATISTICS_WRITING_DATE_UTC : 2017-09-11 14:06:21
_STATISTICS_TAGS : BPS DURATION NUMBER_OF_FRAMES NUMBER_OF_BYTES

Audio #2
ID : 3
Format : AC-3
Format/Info : Audio Coding 3
Mode extension : CM (complete main)
Codec ID : A_AC3
Duration : 1h 19mn
Bit rate mode : Constant
Bit rate : 448 Kbps
Channel(s) : 6 channels
Channel positions : Front: L C R, Side: L R, LFE
Sampling rate : 48.0 KHz
Bit depth : 16 bits
Compression mode : Lossy
Delay relative to video : 1mn 5s
Stream size : 254 MiB (20%)
Title : English 5.1
Language : English
Default : No
Forced : No
DURATION : 01:19:21.120000000
NUMBER_OF_FRAMES : 148785
NUMBER_OF_BYTES : 380889600
_STATISTICS_WRITING_APP : mkvmerge v15.0.0 ('Duel with the Devil') 32-bit
_STATISTICS_WRITING_DATE_UTC : 2017-09-11 14:06:21
_STATISTICS_TAGS : BPS DURATION NUMBER_OF_FRAMES NUMBER_OF_BYTES

Text #1
ID : 4
Format : VobSub
Codec ID : S_VOBSUB
Codec ID/Info : The same subtitle format used on DVDs
Title : Italian Normal
Language : Italian
Default : No
Forced : No
DURATION : 01:19:03.240000000
NUMBER_OF_FRAMES : 587
NUMBER_OF_BYTES : 2235789
_STATISTICS_WRITING_APP : mkvmerge v15.0.0 ('Duel with the Devil') 32-bit
_STATISTICS_WRITING_DATE_UTC : 2017-09-11 14:06:21
_STATISTICS_TAGS : BPS DURATION NUMBER_OF_FRAMES NUMBER_OF_BYTES

Text #2
ID : 5
Format : VobSub
Codec ID : S_VOBSUB
Codec ID/Info : The same subtitle format used on DVDs
Title : Italian Normal
Language : Italian
Default : No
Forced : No
DURATION : 01:19:03.240000000
NUMBER_OF_FRAMES : 587
NUMBER_OF_BYTES : 2235789
_STATISTICS_WRITING_APP : mkvmerge v15.0.0 ('Duel with the Devil') 32-bit
_STATISTICS_WRITING_DATE_UTC : 2017-09-11 14:06:21
_STATISTICS_TAGS : BPS DURATION NUMBER_OF_FRAMES NUMBER_OF_BYTES

Menu
00:00:00.000 : :Capitolo 01
00:07:19.200 : :Capitolo 02
00:13:59.360 : :Capitolo 03
00:20:53.600 : :Capitolo 04
00:27:48.240 : :Capitolo 05
00:35:33.760 : :Capitolo 06
00:41:53.760 : :Capitolo 07
00:49:02.880 : :Capitolo 08
00:55:57.120 : :Capitolo 09
01:02:57.600 : :Capitolo 10
01:09:31.360 : :Capitolo 11
01:15:26.560 : :Capitolo 12


[/spoiler]



Files:

Tiger House (2015).H264.ita.eng.sub.ita.iCV-MIRCrew
  • Tiger House (2015).H264.ita.eng.sub.ita.iCV-MIRCrew.idx (0.5 KB)
  • Tiger House (2015).H264.ita.eng.sub.ita.iCV-MIRCrew.ita.idx (26.2 KB)
  • Tiger House (2015).H264.ita.eng.sub.ita.iCV-MIRCrew.ita.sub (2.7 MB)
  • Tiger House (2015).H264.ita.eng.sub.ita.iCV-MIRCrew.mkv (1.2 GB)
  • Tiger House (2015).H264.ita.eng.sub.ita.iCV-MIRCrew.sub (22.0 KB)
  • www.icv-crew.org.txt (0.1 KB)

There are currently no comments. Feel free to leave one :)

Code:

  • udp://tracker.coppersurfer.tk:6969/announce
  • udp://tracker.opentrackr.org:1337/announce
  • udp://tracker.leechers-paradise.org:6969/announce
  • udp://9.rarbg.com:2710/announce
  • udp://9.rarbg.to:2710/announce
  • udp://9.rarbg.me:2710/announce
  • udp://glotorrents.pw:6969/announce
  • udp://tracker.openbittorrent.com:80/announce
  • udp://tracker.pubt.net:2710/announce
  • udp://tracker.ilibr.org:6969/announce
  • udp://tracker.ilibr.org:80/announce
  • udp://zer0day.to:1337/announce
  • udp://tracker.zer0day.to:1337/announce
  • udp://p4p.arenabg.com:1337/announce
  • udp://p4p.arenabg.ch:1337/announce
  • udp://explodie.org:6969/announce
  • udp://eddie4.nl:6969/announce