Daddy Full Hindi DVDRip 700MB x264 AAC Esubs 720p [ Movies500 ]

  • Category Movies
  • Type Bollywood
  • Language Hindi
  • Total size 727.5 MB
  • Uploaded By faishkhan
  • Downloads 6340
  • Last checked 2 days ago
  • Date uploaded 1 week ago
  • Seeders 27
  • Leechers 8

Infohash : 78E6F34CBD9943E1CEC0A530D43373E8EAC39949




Download Daddy 2017 Click this Link: http://movies500.org


GENERAL

Complete name                            :Daddy 1989 Hindi [ Movies500.ORG ] DVDRip x264 AAC Esubs.mkv
Format                                   : Matroska
Format version                           : Version 4 / Version 2
File size                                : 727 MiB
Duration                                 : 2 h 15 min
Overall bit rate                         : 751 kb/s
Movie name                               : Visit Movies500.ORG
Encoded date                             : UTC 2017-09-14 08:22:21
Writing application                      : mkvmerge v15.0.0 ('Duel with the Devil') 64-bit
Writing library                          : libebml v1.3.5 + libmatroska v1.4.5 / Lavf54.29.104

VDIEO

ID                                       : 1
Format                                   : AVC
Format/Info                              : Advanced Video Codec
Format profile                           : [email protected]
Format settings, CABAC                   : Yes
Format settings, RefFrames               : 2 frames
Codec ID                                 : V_MPEG4/ISO/AVC
Duration                                 : 2 h 15 min
Bit rate                                 : 650 kb/s
Width                                    : 640 pixels
Height                                   : 480 pixels
Display aspect ratio                     : 4:3
Frame rate mode                          : Variable
Frame rate                               : 29.970 FPS
Color space                              : YUV
Chroma subsampling                       : 4:2:0
Bit depth                                : 8 bits
Scan type                                : Progressive
Bits/(Pixel*Frame)                       : 0.071
Stream size                              : 631 MiB (87%)
Title                                    : Movies500.ORG
Writing library                          : x264 core 129 r2230 1cffe9f

SCREENSHOT



AUDIO

ID                                       : 2
Format                                   : AAC
Format/Info                              : Advanced Audio Codec
Format profile                           : LC
Codec ID                                 : A_AAC
Duration                                 : 2 h 15 min
Bit rate                                 : 96.0 kb/s
Channel(s)                               : 2 channels
Channel positions                        : Front: L R
Sampling rate                            : 48.0 kHz
Frame rate                               : 46.875 FPS (1024 SPF)
Compression mode                         : Lossy
Delay relative to video                  : -33 ms
Stream size                              : 93.2 MiB (13%)
Title                                    : Movies500.ORG
Default                                  : Yes
Forced                                   : No

TEXT

ID                                       : 3
Format                                   : ASS
Codec ID                                 : S_TEXT/ASS
Codec ID/Info                            : Advanced Sub Station Alpha
Bit rate                                 : 0 b/s
Count of elements                        : 0
Compression mode                         : Lossless
Stream size                              : 0.00 Byte (0%)
Default                                  : Yes
Forced                                   : No

Files:

  • Daddy 1989 Hindi [ Movies500.ORG ] DVDRip x264 AAC Esubs.mkv (727.5 MB)

Comments

Code:

  • udp://tracker.openbittorrent.com:80/announce
  • udp://tracker.opentrackr.org:1337/announce
  • udp://tracker.coppersurfer.tk:6969/announce
  • UDP://TRACKER.LEECHERS-PARADISE.ORG:6969/ANNOUNCE
  • udp://tracker.coppersurfer.tk:6969/announce