Personal Shopper 2016 10bit hevc-d3g.

  • Category Movies
  • Type HD
  • Language English
  • Total size 1.9 GB
  • Uploaded By showstopper
  • Downloads 9
  • Last checked 2 days ago
  • Date uploaded 1 week ago
  • Seeders 1
  • Leechers 7

Infohash : BB70DFB3A2251D976E5749DC2CB9AECF5D5C1850

Personal Shopper 2016 10bit hevc-d3g.

ImDb: http://www.imdb.com/title/tt4714782



Complete name : Personal Shopper 2016 BluRay 10Bit 1080p DD5.1 H265-d3g.mkv
Format : Matroska
Format version : Version 4 / Version 2
File size : 1.89 GiB
Duration : 1 h 45 min
Overall bit rate : 2 567 kb/s
Movie name : Personal Shopper 2016 BluRay 10Bit 1080p DD5.1 H265-d3g
Encoded date : UTC 2017-09-09 20:48:06
Writing application : DVDFab 10.0.5.7
Writing library : libebml v1.3.4 + libmatroska v1.4.5

Video
ID : 1
Format : HEVC
Format/Info : High Efficiency Video Coding
Format profile : Main [email protected]@Main
Codec ID : V_MPEGH/ISO/HEVC
Duration : 1 h 45 min
Bit rate : 2 118 kb/s
Width : 1 920 pixels
Height : 800 pixels
Display aspect ratio : 2.40:1
Frame rate mode : Constant
Frame rate : 24.000 FPS
Color space : YUV
Chroma subsampling : 4:2:0
Bit depth : 10 bits
Bits/(Pixel*Frame) : 0.057
Stream size : 1.56 GiB (82%)
Default : Yes
Forced : No
Color range : Limited
Color primaries : BT.709
Transfer characteristics : BT.709
Matrix coefficients : BT.709

Audio
ID : 2
Format : AC-3
Format/Info : Audio Coding 3
Format settings, Endianness : Big
Codec ID : A_AC3
Duration : 1 h 45 min
Bit rate mode : Constant
Bit rate : 448 kb/s
Channel(s) : 6 channels
Channel positions : Front: L C R, Side: L R, LFE
Sampling rate : 48.0 kHz
Frame rate : 31.250 FPS (1536 spf)
Bit depth : 16 bits
Compression mode : Lossy
Stream size : 337 MiB (17%)
Language : English
Service kind : Complete Main
Default : Yes
Forced : No

Menu
00:00:00.000 : en:(01)00:00:00:000
00:06:36.958 : en:(02)00:06:36:958
00:12:37.375 : en:(03)00:12:37:375
00:18:55.625 : en:(04)00:18:55:625
00:25:43.666 : en:(05)00:25:43:666
00:31:58.000 : en:(06)00:31:58:000
00:38:53.833 : en:(07)00:38:53:833
00:52:26.041 : en:(08)00:52:26:041
00:59:57.208 : en:(09)00:59:57:208
01:06:10.958 : en:(10)01:06:10:958
01:12:44.041 : en:(11)01:12:44:041
01:16:12.500 : en:(12)01:16:12:500
01:21:36.458 : en:(13)01:21:36:458
01:27:42.083 : en:(14)01:27:42:083
01:34:06.208 : en:(15)01:34:06:208
01:40:49.416 : en:(16)01:40:49:416






Click To View Screenshot

Click To View Screenshot

Click To View Screenshot

Files:

Personal Shopper 2016 10bit hevc-d3g.
  • Personal Shopper 2016 BluRay 10Bit 1080p DD5.1 H265-d3g.mkv (1.9 GB)

There are currently no comments. Feel free to leave one :)

Code:

  • udp://tracker.coppersurfer.tk:6969/announce
  • udp://tracker.pirateparty.gr:6969/announce
  • udp://shadowshq.yi.org:6969/announce
  • udp://eddie4.nl:6969/announce
  • udp://tracker.leechers-paradise.org:6969/announce
  • udp://tracker.opentrackr.org:1337/announce
  • udp://p4p.arenabg.ch:1337/announce
  • udp://p4p.arenabg.com:1337/announce
  • udp://9.rarbg.me:2710/announce
  • udp://9.rarbg.to:2710/announce
  • udp://ipv4.tracker.harry.lu:80/announce
  • udp://tracker.grepler.com:6969/announce
  • udp://public.popcorn-tracker.org:6969/announce
  • udp://tracker.opentrackr.org:1337/announce
  • udp://tracker.zer0day.to:1337/announce