18+ Smartass 2017 UNCENSORED Movies HDRip XviD AAC with Sample ☻r...

  • Category Movies
  • Type HD
  • Language English
  • Total size 705.5 MB
  • Uploaded By nehalpuja
  • Downloads 9488
  • Last checked 6 days ago
  • Date uploaded 1 week ago
  • Seeders 124
  • Leechers 66

Infohash : A62AFC9EC350127A4FADC7EE597CAE1EE5E05B70

18+ Smartass 2017 UNCENSORED Movies HDRip XviD AAC with Sample ☻rDX☻
===============================================================================================

SCREEN SHOTS:



or

http://postimage.co.nr/2017/9/phone/1.html

File size : 698 MiB
Duration : 1 h 30 min
Overall bit rate mode : Constant
Overall bit rate : 1 080 kb/s
Movie name : 18+ Smartass 2017 UNCENSORED Movies HDRip XviD AAC ☻rDX☻

Video
ID : 2
Format : AVC
Format/Info : Advanced Video Codec
Format profile : [email protected]
Format settings, CABAC : Yes
Format settings, ReFrames : 2 frames
Format settings, GOP : M=1, N=12
Codec ID : V_MPEG4/ISO/AVC
Duration : 1 h 30 min
Bit rate mode : Constant
Bit rate : 697 kb/s
Width : 720 pixels
Height : 304 pixels
Display aspect ratio : 2.35:1
Frame rate mode : Constant
Frame rate : 24.000 FPS
Color space : YUV
Chroma subsampling : 4:2:0
Bit depth : 8 bits
Scan type : Progressive
Bits/(Pixel*Frame) : 0.133
Stream size : 436 MiB (62%)
Title : ☻rDX☻
Default : Yes
Forced : No

Audio
ID : 1
Format : AC-3
Format/Info : Audio Coding 3
Mode extension : CM (complete main)
Format settings, Endianness : Big
Codec ID : A_AC3
Duration : 1 h 30 min
Bit rate mode : Constant
Bit rate : 384 kb/s
Channel(s) : 6 channels
Channel positions : Front: L C R, Side: L R, LFE
Sampling rate : 48.0 kHz
Frame rate : 31.250 FPS (1536 spf)
Bit depth : 16 bits
Compression mode : Lossy
Stream size : 248 MiB (36%)
Title : ☻rDX☻
Default : Yes
Forced : No



IMDB : http://www.imdb.com/title/tt4513538

Files:

18+ Smartass 2017 UNCENSORED Movies HDRip XviD AAC with Sample ☻rDX☻
  • Sample ~ 18+ Smartass 2017 UNCENSORED Movies HDRip XviD AAC ☻rDX☻.mkv (7.7 MB)
  • 18+ Smartass 2017 UNCENSORED Movies HDRip XviD AAC ☻rDX☻.mkv (697.8 MB)

There are currently no comments. Feel free to leave one :)

Code:

  • udp://tracker.coppersurfer.tk:6969/announce
  • udp://tracker.openbittorrent.com:80/announce
  • udp://glotorrents.pw:6969/announce
  • udp://tracker.publicbt.com:80/announce
  • http://retracker.krs-ix.ru/announce
  • udp://tracker.pomf.se:80/announce
  • udp://explodie.org:6969/announce
  • http://mgtracker.org:2710/announce
  • http://tracker.aletorrenty.pl:2710/announce
  • http://tracker.btcake.com/announce
  • udp://tracker.openbittorrent.com:80/announce
  • udp://tracker.leechers-paradise.org:6969/announce
  • udp://coppersurfer.tk:6969/announce