State of Play 2009 720p Esub BluRay Dual Audio English Hindi GOP...

  • Category Movies
  • Type Dubs/Dual Audio
  • Language English
  • Total size 852.2 MB
  • Uploaded By PENDUDESI
  • Downloads 2928
  • Last checked 3 days ago
  • Date uploaded 1 week ago
  • Seeders 30
  • Leechers 8

State of Play

CrimeDramaMysteryThriller

Handsome, unflappable U.S. Congressman Stephen Collins is the future of his political party: an honorable appointee who serves as the chairman of a committee overseeing defense spending. All eyes are upon the rising star to be his party's contender for the upcoming presidential race. Until his research assistant/mistress is brutally murdered and buried secrets come tumbling out.

Infohash : 6ADBCDEC4918FFC3BCFBB5081E79A539621A4B4F


Format : Matroska
Format version : Version 4 / Version 2
File size : 852 MiB
Duration : 2 h 7 min
Overall bit rate : 938 kb/s
Movie name : State of Play 2009

Video
Format : AVC
Codec ID : V_MPEG4/ISO/AVC
Duration : 2 h 7 min
Bit rate : 767 kb/s
Width : 1 280 pixels
Height : 544 pixels
Display aspect ratio : 2.35:1
Frame rate mode : Constant
Frame rate : 23.976 (24000/1001) FPS
Stream size : 697 MiB (82%)
Writing library : x264 core 116 r2074 2641b9e

Audio #1
Format : AAC
Duration : 2 h 7 min
Bit rate : 81.7 kb/s
Channel(s) : 6 channels
Channel positions : Front: L C R, Side: L R, LFE
Sampling rate : 44.1 kHz
Frame rate : 43.066 FPS (1024 SPF)
Stream size : 74.2 MiB (9%)
Language : English

Audio #2
Format : AAC
Duration : 2 h 6 min
Bit rate : 86.5 kb/s
Channel(s) : 6 channels
Channel positions : Front: L C R, Side: L R, LFE
Sampling rate : 44.1 kHz
Frame rate : 43.066 FPS (1024 SPF)
Compression mode : Lossy
Stream size : 78.6 MiB (9%)
Language : Hindi

Text
Language : English


Files:

  • State of Play 2009 720p Esub BluRay Dual Audio English Hindi GOPISAHI.mkv (852.2 MB)

There are currently no comments. Feel free to leave one :)

Code:

  • udp://tracker.coppersurfer.tk:6969/announce
  • udp://tracker.opentrackr.org:1337/announce
  • udp://tracker.zer0day.to:1337/announce
  • udp://zer0day.to:1337/announce
  • udp://p4p.arenabg.com:1337/announce
  • udp://explodie.org:6969/announce
  • udp://tracker.leechers-paradise.org:6969/announce
  • udp://public.popcorn-tracker.org:6969/announce
  • udp://explodie.org:6969